<?xml version="1.0" standalone="no"?>
<!DOCTYPE svg PUBLIC "-//W3C//DTD SVG 1.1//EN" "http://www.w3.org/Graphics/SVG/1.1/DTD/svg11.dtd" >
<svg xmlns="http://www.w3.org/2000/svg">
<metadata>
This is a custom SVG webfont generated by Font Squirrel.
Copyright   : Copyright  1999 by Samuel Reynolds All rights reserved
</metadata>
<defs>
<font id="LCDMono2Ultra" horiz-adv-x="1177" >
<font-face units-per-em="2048" ascent="1638" descent="-410" />
<missing-glyph horiz-adv-x="500" />
<glyph unicode=" " />
<glyph unicode="!" d="M377 117l127 112l96 -112l-127 -113zM414 406l37 268l133 114l98 -114l-37 -268l-133 -117zM492 965l77 553l133 116l99 -116l-78 -553l-131 -115z" />
<glyph unicode="&#x22;" d="M279 1229l28 196l133 117l101 -117l-27 -196l-135 -117zM637 1229l27 196l135 117l100 -117l-29 -196l-133 -117z" />
<glyph unicode="$" d="M27 262l4 19l131 116l100 -116l-2 -19l-133 -117zM129 965l57 411l133 117l99 -117l-58 -411l-133 -115zM156 117l131 114h75l125 -143l164 143h76l100 -114l-133 -117h-440zM252 819l131 117h76l100 -117l-133 -117h-76zM352 1522l133 116h441l98 -116l-131 -115h-76 l-125 143l-164 -143h-75zM395 262l58 412l131 114l100 -114l-57 -412l-133 -117zM494 965l57 411l133 117l98 -117l-57 -411l-131 -115zM618 819l134 117h75l99 -117l-131 -117h-76zM762 262l57 412l133 114l99 -114l-58 -412l-131 -117zM915 1358l3 18l133 117l100 -117 l-4 -18l-131 -117z" />
<glyph unicode="'" d="M459 1229l26 196l133 117l101 -117l-27 -196l-133 -117z" />
<glyph unicode="(" d="M287 262l75 537h107l106 -125l-57 -412l-133 -117zM367 840l75 536l133 117l99 -117l-58 -411l-141 -125h-108zM412 117l131 114h51l100 -114l-133 -117h-49zM608 1522l133 116h52l98 -116l-131 -115h-51z" />
<glyph unicode=")" d="M287 117l131 114h51l100 -114l-133 -117h-51zM483 1522l133 116h50l100 -116l-131 -115h-51zM504 262l57 412l141 125h109l-76 -537l-133 -117zM602 965l57 411l134 117l98 -117l-76 -536h-106z" />
<glyph unicode="*" d="M356 616l21 142l47 41h141l-20 -142l-47 -41h-142zM393 883l21 141h141l37 -41l-21 -141h-141zM586 657l20 142h142l36 -41l-20 -142h-141zM612 842l21 141l47 41h141l-20 -141l-47 -41h-142z" />
<glyph unicode="+" d="M184 819l133 117h142l100 -117l-133 -117h-141zM430 522l21 150l133 116l102 -116l-22 -150l-134 -116zM492 967l22 149l133 117l101 -117l-21 -149l-133 -117zM618 819l134 117h141l100 -117l-133 -117h-141z" />
<glyph unicode="," d="M449 -106l49 348l131 116l100 -116l-16 -117z" />
<glyph unicode="." d="M465 125l16 117l131 116l101 -116l-17 -117l-131 -117z" />
<glyph unicode="/" d="M23 0l28 211l400 588h114l-37 -262l-368 -537h-137zM612 840l37 262l369 536h137l-29 -211l-399 -587h-115z" />
<glyph unicode="0" d="M29 262l57 412l133 114l98 -114l-57 -412l-131 -117zM127 965l57 411l133 117l101 -117l-60 -411l-131 -115zM154 117l133 114h440l98 -114l-131 -117h-440zM352 1522l131 116h441l100 -116l-133 -115h-440zM760 262l59 412l131 114l101 -114l-58 -412l-133 -117z M860 965l58 411l131 117l100 -117l-57 -411l-134 -115z" />
<glyph unicode="1" d="M324 1155l16 119l221 192l-43 -301l-117 -100zM420 100l80 572l135 116l100 -116l-78 -551l-135 -117zM543 967l75 551l136 116l100 -116l-78 -551l-133 -117z" />
<glyph unicode="2" d="M12 31l90 647l134 117l100 -117l-60 -416zM39 0l264 231h442l199 -231h-905zM199 1358l2 18l133 117l100 -117l-4 -18l-131 -117zM268 819l133 117h443l100 -117l-133 -117h-442zM369 1522l131 116h440l100 -116l-133 -115h-440zM877 965l57 411l131 117l100 -117 l-57 -411l-133 -115z" />
<glyph unicode="3" d="M61 117l132 114h501l99 -114l-131 -117h-500zM258 1522l133 116h500l100 -116l-133 -115h-500zM279 819l131 117h383l100 -117l-133 -117h-383zM727 262l59 412l132 114l100 -114l-57 -412l-134 -117zM827 965l58 411l131 117l100 -117l-57 -411l-133 -115z" />
<glyph unicode="4" d="M68 965l63 442l131 117l100 -117l-63 -442l-131 -115zM190 819l134 117h442l100 -117l-133 -117h-442zM682 121l78 553l131 114l100 -114l-78 -553l-133 -117zM801 965l78 553l131 116l100 -116l-78 -553l-133 -115z" />
<glyph unicode="5" d="M25 262l2 19l133 116l98 -116l-2 -19l-133 -117zM104 840l109 768l201 -234l-58 -409l-145 -125h-107zM150 117l131 114h440l100 -114l-131 -117h-440zM248 819l133 117h442l101 -117l-133 -117h-443zM248 1638h905l-264 -231h-443zM758 262l59 412l131 114l101 -114 l-60 -412l-131 -117z" />
<glyph unicode="6" d="M78 262l76 537h106l109 -125l-60 -412l-131 -117zM160 840l76 536l131 117l100 -117l-57 -411l-144 -125h-106zM203 117l133 114h440l98 -114l-131 -117h-440zM299 819l133 117h442l101 -117l-133 -117h-443zM401 1522l131 116h441l100 -116l-133 -115h-440zM809 262 l59 412l131 114l101 -114l-58 -412l-133 -117z" />
<glyph unicode="7" d="M88 0l29 211l401 588h113l-33 -232l-373 -567h-137zM119 1522l133 116h739l99 -116l-132 -115h-739zM678 840l29 200l229 324h4l-57 -412l-92 -112h-113z" />
<glyph unicode="8" d="M29 262l57 412l133 114l98 -114l-57 -412l-131 -117zM127 965l57 411l133 117l101 -117l-60 -411l-131 -115zM154 117l133 114h440l98 -114l-131 -117h-440zM250 819l133 117h442l101 -117l-133 -117h-443zM352 1522l131 116h441l100 -116l-133 -115h-440zM760 262 l59 412l131 114l101 -114l-58 -412l-133 -117zM860 965l58 411l131 117l100 -117l-57 -411l-134 -115z" />
<glyph unicode="9" d="M78 965l57 411l133 117l101 -117l-60 -411l-131 -115zM104 117l134 114h440l98 -114l-131 -117h-440zM203 819l133 117h442l101 -117l-134 -117h-442zM303 1522l131 116h440l101 -116l-133 -115h-441zM711 262l57 412l143 125h107l-76 -537l-131 -117zM809 965l59 411 l131 117l101 -117l-76 -536h-106z" />
<glyph unicode=":" d="M432 121l17 117l131 116l100 -116l-16 -117l-134 -117zM498 588l16 117l133 116l98 -116l-16 -117l-131 -117z" />
<glyph unicode=";" d="M416 -106l49 348l133 116l98 -116l-16 -117zM514 588l16 117l132 116l100 -116l-17 -117l-133 -117z" />
<glyph unicode="&#x3c;" d="M403 598l29 201h141l76 -234l-55 -383h-4zM438 840l29 200l303 416h4l-55 -383l-139 -233h-142z" />
<glyph unicode="=" d="M203 117l131 114h444l101 -114l-134 -117h-444zM301 805l131 117h445l98 -117l-131 -115h-445z" />
<glyph unicode="&#x3e;" d="M403 182l56 383l139 234h141l-28 -201l-303 -416h-5zM528 1073l56 383h4l186 -416l-29 -200h-141z" />
<glyph unicode="?" d="M190 1522l132 116h440l86 -100l-150 -131h-409zM211 121l133 115l100 -115l-133 -117zM254 412l35 262l133 114l100 -114l-37 -262l-133 -115zM457 819l168 148h12l127 -148l-133 -117h-76zM672 995l53 381l149 131l113 -131l-57 -411l-133 -115z" />
<glyph unicode="A" d="M14 121l97 678h106l107 -125l-78 -553l-131 -117zM117 840l73 534l136 119l100 -117l-57 -411l-144 -125h-108zM262 819l131 117h443l100 -117l-131 -117h-445zM362 1522l134 116h440l98 -116l-131 -115h-440zM754 121l77 553l144 125h106l-96 -678l-131 -117zM870 965 l58 411l135 119l100 -119l-76 -536h-110z" />
<glyph unicode="B" d="M10 31l109 768h106l109 -125l-60 -412zM37 0l264 231h442l101 -114l-133 -117h-674zM125 840l108 768l199 -232l-57 -411l-144 -125h-106zM266 1638h676l98 -116l-131 -115h-442zM268 819l131 117h443l100 -117l-131 -117h-444zM778 262l58 412l133 114l98 -114l-57 -412 l-131 -117zM877 965l57 411l133 117l100 -117l-59 -411l-131 -115z" />
<glyph unicode="C" d="M29 262l75 537h107l106 -125l-57 -412l-131 -117zM111 840l73 536l133 117l101 -117l-60 -411l-141 -125h-106zM154 117l133 114h440l98 -114l-131 -117h-440zM352 1522l131 116h441l100 -116l-133 -115h-440zM760 262l4 19l131 116l100 -116l-2 -19l-133 -117zM915 1358 l3 18l131 117l100 -117l-2 -18l-133 -117z" />
<glyph unicode="D" d="M10 31l109 768h106l109 -125l-60 -412zM37 0l264 231h442l101 -114l-133 -117h-674zM125 840l108 768l199 -232l-57 -411l-144 -125h-106zM266 1638h676l98 -116l-131 -115h-442zM778 262l58 412l143 125h106l-75 -537l-131 -117zM877 965l57 411l133 117l100 -117 l-75 -536h-109z" />
<glyph unicode="E" d="M92 262l74 537h108l107 -125l-57 -412l-134 -117zM172 840l76 536l133 117l98 -117l-57 -411l-141 -125h-109zM217 117l131 114h440l101 -114l-133 -117h-441zM313 819l131 117h324l100 -117l-133 -117h-323zM414 1522l133 116h440l98 -116l-131 -115h-440z" />
<glyph unicode="F" d="M82 121l94 678h109l106 -125l-78 -553l-133 -117zM182 840l76 536l131 117l100 -117l-57 -411l-143 -125h-107zM324 819l131 117h323l99 -117l-132 -117h-323zM424 1522l133 116h440l99 -116l-131 -115h-441z" />
<glyph unicode="G" d="M61 262l76 537h107l108 -125l-59 -412l-131 -117zM143 840l76 536l131 117l101 -117l-58 -411l-143 -125h-107zM186 117l133 114h441l100 -114l-133 -117h-440zM385 1522l131 116h440l101 -116l-133 -115h-441zM651 819l131 117h308l-265 -234h-75zM795 262l57 412 l264 231l-90 -643l-133 -117z" />
<glyph unicode="H" d="M8 121l96 678h107l106 -125l-77 -553l-131 -117zM111 840l94 678l133 116l98 -116l-78 -553l-141 -125h-106zM250 819l133 117h442l101 -117l-133 -117h-443zM741 121l78 553l142 125h106l-94 -678l-133 -117zM860 965l78 553l131 116l100 -116l-96 -678h-106z" />
<glyph unicode="I" d="M375 121l78 553l131 114l100 -114l-78 -553l-131 -117zM494 965l77 553l131 116l101 -116l-78 -553l-131 -115z" />
<glyph unicode="J" d="M16 262l4 19l132 116l100 -116l-2 -19l-133 -117zM143 117l131 114h441l100 -114l-133 -117h-440zM752 262l57 412l143 125h107l-76 -537l-131 -117zM850 965l78 557l133 116l100 -116l-96 -682h-107z" />
<glyph unicode="K" d="M16 121l95 678h106l109 -125l-78 -553l-133 -117zM117 840l94 678l133 116l100 -116l-77 -553l-144 -125h-106zM258 819l131 117h76l100 -117l-133 -117h-76zM485 698l115 101h94l273 -559l-35 -240h-109zM520 940l533 698h108l-33 -239l-428 -559h-94z" />
<glyph unicode="L" d="M190 262l76 537h107l106 -125l-57 -412l-133 -117zM272 840l95 678l133 116l98 -116l-78 -553l-141 -125h-107zM315 117l134 114h440l98 -114l-131 -117h-440z" />
<glyph unicode="M" d="M6 117l96 682h107l108 -127l-77 -555l-134 -117zM106 840l97 682l133 116l100 -116l-78 -555l-143 -127h-109zM401 983l58 416h4l139 -326l-33 -233h-82zM612 840l33 233l229 326h5l-58 -416l-127 -143h-82zM741 117l78 555l144 127h108l-96 -682l-133 -117zM860 967 l78 555l133 116l100 -116l-96 -682h-106z" />
<glyph unicode="N" d="M8 121l96 678h107l106 -125l-77 -553l-131 -117zM111 840l94 678l133 116l98 -116l-78 -553l-141 -125h-106zM440 1260l41 296h45l322 -374l-31 -213h-125zM741 121l78 553l142 125h106l-94 -678l-133 -117zM860 965l78 553l131 116l100 -116l-96 -678h-106z" />
<glyph unicode="O" d="M29 262l75 537h107l106 -125l-57 -412l-131 -117zM111 840l73 536l133 117l101 -117l-60 -411l-141 -125h-106zM154 117l133 114h440l98 -114l-131 -117h-440zM352 1522l131 116h441l100 -116l-133 -115h-440zM760 262l59 412l142 125h106l-74 -537l-133 -117zM860 965 l58 411l131 117l100 -117l-76 -536h-106z" />
<glyph unicode="P" d="M16 121l95 678h108l107 -125l-78 -553l-131 -117zM121 840l106 768l199 -232l-57 -411l-142 -125h-106zM262 819l133 117h443l100 -117l-133 -117h-443zM262 1638h674l100 -116l-133 -115h-442zM872 965l58 411l131 117l100 -117l-57 -411l-133 -115z" />
<glyph unicode="Q" d="M29 262l75 537h107l106 -125l-57 -412l-131 -117zM111 840l73 536l133 117l101 -117l-60 -411l-141 -125h-106zM154 117l133 114h440l98 -114l-131 -117h-440zM352 1522l131 116h441l100 -116l-133 -115h-440zM580 410l45 313l139 -111l-45 -315zM760 262l59 412l142 125 h106l-74 -537l-133 -117zM860 965l58 411l131 117l100 -117l-76 -536h-106z" />
<glyph unicode="R" d="M16 121l95 678h108l107 -125l-78 -553l-131 -117zM121 840l106 768l199 -232l-57 -411l-142 -125h-106zM262 819l133 117h443l100 -117l-133 -117h-443zM262 1638h674l100 -116l-133 -115h-442zM356 580l13 82h225l385 -588l-10 -74h-234zM872 965l58 411l131 117 l100 -117l-57 -411l-133 -115z" />
<glyph unicode="S" d="M27 262l4 19l131 116l100 -116l-2 -19l-133 -117zM129 965l57 411l133 117l99 -117l-58 -411l-133 -115zM154 117l131 114h440l100 -114l-133 -117h-440zM252 819l131 117h444l99 -117l-131 -117h-445zM352 1522l133 116h441l98 -116l-131 -115h-440zM762 262l57 412 l133 114l99 -114l-58 -412l-131 -117zM915 1358l3 18l133 117l100 -117l-4 -18l-131 -117z" />
<glyph unicode="T" d="M133 1522l131 116h682l98 -116l-131 -115h-196l-125 143l-164 -143h-197zM274 121l78 553l133 114l99 -114l-78 -553l-131 -117zM393 965l58 411l133 117l98 -117l-57 -411l-131 -115z" />
<glyph unicode="U" d="M18 262l76 537h107l108 -125l-59 -412l-131 -117zM100 840l95 678l133 116l98 -116l-76 -553l-143 -125h-107zM143 117l133 114h441l98 -114l-131 -117h-440zM752 262l57 412l141 125h107l-74 -537l-133 -117zM850 965l78 553l131 116l100 -116l-96 -678h-107z" />
<glyph unicode="V" d="M49 711l12 88h232l164 -475l-45 -324h-82zM70 840l96 678l131 116l100 -116l-88 -617l-41 -61h-198zM453 0l47 324l297 475h231l-12 -88l-481 -711h-82zM811 901l86 617l131 116l100 -116l-94 -678h-198z" />
<glyph unicode="W" d="M6 117l96 680h109l106 -125l-77 -555l-134 -117zM109 838l96 680l131 116l100 -116l-78 -555l-143 -125h-106zM297 240l57 415l127 142h82l-33 -234l-229 -323h-4zM573 563l33 234h82l86 -142l-57 -415h-4zM741 117l78 555l144 125h106l-96 -680l-131 -117zM860 963 l78 555l133 116l100 -116l-96 -680h-108z" />
<glyph unicode="X" d="M23 0l32 242l367 557h143l-33 -234l-372 -565h-137zM217 1397l35 241h139l213 -567l-33 -231h-143zM573 565l33 234h144l211 -557l-35 -242h-140zM612 840l33 231l373 567h137l-33 -241l-366 -557h-144z" />
<glyph unicode="Y" d="M94 1489l21 149h200l179 -598l-29 -202h-174zM268 117l78 555l133 114l101 -114l-78 -555l-133 -117zM508 838l29 202l346 598h200l-20 -149l-381 -651h-174z" />
<glyph unicode="Z" d="M90 117l133 114h504l100 -114l-133 -117h-504zM211 274l45 324l195 201h114l-33 -232l-256 -293h-65zM352 1522l133 116h502l100 -116l-133 -115h-501zM612 840l33 231l256 293h66l-45 -324l-195 -200h-115z" />
<glyph unicode="[" d="M215 31l107 768h108l107 -125l-58 -412zM240 0l264 231h76l159 -186l-6 -45h-493zM328 840l108 768l199 -232l-57 -411l-144 -125h-106zM471 1638h492l-7 -45l-211 -186h-75z" />
<glyph unicode="\" d="M223 1427l29 211h139l217 -536l-37 -262h-114zM569 537l37 262h115l233 -588l-28 -211h-140z" />
<glyph unicode="]" d="M215 0l6 45l211 186h76l199 -231h-492zM438 1593l6 45h494l-264 -231h-76zM543 262l57 412l143 125h107l-109 -768zM641 965l57 411l265 232l-107 -768h-108z" />
<glyph unicode="_" d="M252 117l131 114h444l99 -114l-131 -117h-445z" />
<glyph unicode="a" d="M14 121l97 678h106l107 -125l-78 -553l-131 -117zM117 840l73 534l136 119l100 -117l-57 -411l-144 -125h-108zM262 819l131 117h443l100 -117l-131 -117h-445zM362 1522l134 116h440l98 -116l-131 -115h-440zM754 121l77 553l144 125h106l-96 -678l-131 -117zM870 965 l58 411l135 119l100 -119l-76 -536h-110z" />
<glyph unicode="b" d="M10 31l109 768h106l109 -125l-60 -412zM37 0l264 231h442l101 -114l-133 -117h-674zM125 840l108 768l199 -232l-57 -411l-144 -125h-106zM266 1638h676l98 -116l-131 -115h-442zM268 819l131 117h443l100 -117l-131 -117h-444zM778 262l58 412l133 114l98 -114l-57 -412 l-131 -117zM877 965l57 411l133 117l100 -117l-59 -411l-131 -115z" />
<glyph unicode="c" d="M29 262l75 537h107l106 -125l-57 -412l-131 -117zM111 840l73 536l133 117l101 -117l-60 -411l-141 -125h-106zM154 117l133 114h440l98 -114l-131 -117h-440zM352 1522l131 116h441l100 -116l-133 -115h-440zM760 262l4 19l131 116l100 -116l-2 -19l-133 -117zM915 1358 l3 18l131 117l100 -117l-2 -18l-133 -117z" />
<glyph unicode="d" d="M10 31l109 768h106l109 -125l-60 -412zM37 0l264 231h442l101 -114l-133 -117h-674zM125 840l108 768l199 -232l-57 -411l-144 -125h-106zM266 1638h676l98 -116l-131 -115h-442zM778 262l58 412l143 125h106l-75 -537l-131 -117zM877 965l57 411l133 117l100 -117 l-75 -536h-109z" />
<glyph unicode="e" d="M92 262l74 537h108l107 -125l-57 -412l-134 -117zM172 840l76 536l133 117l98 -117l-57 -411l-141 -125h-109zM217 117l131 114h440l101 -114l-133 -117h-441zM313 819l131 117h324l100 -117l-133 -117h-323zM414 1522l133 116h440l98 -116l-131 -115h-440z" />
<glyph unicode="f" d="M82 121l94 678h109l106 -125l-78 -553l-133 -117zM182 840l76 536l131 117l100 -117l-57 -411l-143 -125h-107zM324 819l131 117h323l99 -117l-132 -117h-323zM424 1522l133 116h440l99 -116l-131 -115h-441z" />
<glyph unicode="g" d="M61 262l76 537h107l108 -125l-59 -412l-131 -117zM143 840l76 536l131 117l101 -117l-58 -411l-143 -125h-107zM186 117l133 114h441l100 -114l-133 -117h-440zM385 1522l131 116h440l101 -116l-133 -115h-441zM651 819l131 117h308l-265 -234h-75zM795 262l57 412 l264 231l-90 -643l-133 -117z" />
<glyph unicode="h" d="M8 121l96 678h107l106 -125l-77 -553l-131 -117zM111 840l94 678l133 116l98 -116l-78 -553l-141 -125h-106zM250 819l133 117h442l101 -117l-133 -117h-443zM741 121l78 553l142 125h106l-94 -678l-133 -117zM860 965l78 553l131 116l100 -116l-96 -678h-106z" />
<glyph unicode="i" d="M375 121l78 553l131 114l100 -114l-78 -553l-131 -117zM494 965l77 553l131 116l101 -116l-78 -553l-131 -115z" />
<glyph unicode="j" d="M16 262l4 19l132 116l100 -116l-2 -19l-133 -117zM143 117l131 114h441l100 -114l-133 -117h-440zM752 262l57 412l143 125h107l-76 -537l-131 -117zM850 965l78 557l133 116l100 -116l-96 -682h-107z" />
<glyph unicode="k" d="M16 121l95 678h106l109 -125l-78 -553l-133 -117zM117 840l94 678l133 116l100 -116l-77 -553l-144 -125h-106zM258 819l131 117h76l100 -117l-133 -117h-76zM485 698l115 101h94l273 -559l-35 -240h-109zM520 940l533 698h108l-33 -239l-428 -559h-94z" />
<glyph unicode="l" d="M190 262l76 537h107l106 -125l-57 -412l-133 -117zM272 840l95 678l133 116l98 -116l-78 -553l-141 -125h-107zM315 117l134 114h440l98 -114l-131 -117h-440z" />
<glyph unicode="m" d="M6 117l96 682h107l108 -127l-77 -555l-134 -117zM106 840l97 682l133 116l100 -116l-78 -555l-143 -127h-109zM401 983l58 416h4l139 -326l-33 -233h-82zM612 840l33 233l229 326h5l-58 -416l-127 -143h-82zM741 117l78 555l144 127h108l-96 -682l-133 -117zM860 967 l78 555l133 116l100 -116l-96 -682h-106z" />
<glyph unicode="n" d="M8 121l96 678h107l106 -125l-77 -553l-131 -117zM111 840l94 678l133 116l98 -116l-78 -553l-141 -125h-106zM440 1260l41 296h45l322 -374l-31 -213h-125zM741 121l78 553l142 125h106l-94 -678l-133 -117zM860 965l78 553l131 116l100 -116l-96 -678h-106z" />
<glyph unicode="o" d="M29 262l75 537h107l106 -125l-57 -412l-131 -117zM111 840l73 536l133 117l101 -117l-60 -411l-141 -125h-106zM154 117l133 114h440l98 -114l-131 -117h-440zM352 1522l131 116h441l100 -116l-133 -115h-440zM760 262l59 412l142 125h106l-74 -537l-133 -117zM860 965 l58 411l131 117l100 -117l-76 -536h-106z" />
<glyph unicode="p" d="M16 121l95 678h108l107 -125l-78 -553l-131 -117zM121 840l106 768l199 -232l-57 -411l-142 -125h-106zM262 819l133 117h443l100 -117l-133 -117h-443zM262 1638h674l100 -116l-133 -115h-442zM872 965l58 411l131 117l100 -117l-57 -411l-133 -115z" />
<glyph unicode="q" d="M29 262l75 537h107l106 -125l-57 -412l-131 -117zM111 840l73 536l133 117l101 -117l-60 -411l-141 -125h-106zM154 117l133 114h440l98 -114l-131 -117h-440zM352 1522l131 116h441l100 -116l-133 -115h-440zM580 410l45 313l139 -111l-45 -315zM760 262l59 412l142 125 h106l-74 -537l-133 -117zM860 965l58 411l131 117l100 -117l-76 -536h-106z" />
<glyph unicode="r" d="M16 121l95 678h108l107 -125l-78 -553l-131 -117zM121 840l106 768l199 -232l-57 -411l-142 -125h-106zM262 819l133 117h443l100 -117l-133 -117h-443zM262 1638h674l100 -116l-133 -115h-442zM356 580l13 82h225l385 -588l-10 -74h-234zM872 965l58 411l131 117 l100 -117l-57 -411l-133 -115z" />
<glyph unicode="s" d="M27 262l4 19l131 116l100 -116l-2 -19l-133 -117zM129 965l57 411l133 117l99 -117l-58 -411l-133 -115zM154 117l131 114h440l100 -114l-133 -117h-440zM252 819l131 117h444l99 -117l-131 -117h-445zM352 1522l133 116h441l98 -116l-131 -115h-440zM762 262l57 412 l133 114l99 -114l-58 -412l-131 -117zM915 1358l3 18l133 117l100 -117l-4 -18l-131 -117z" />
<glyph unicode="t" d="M133 1522l131 116h682l98 -116l-131 -115h-196l-125 143l-164 -143h-197zM274 121l78 553l133 114l99 -114l-78 -553l-131 -117zM393 965l58 411l133 117l98 -117l-57 -411l-131 -115z" />
<glyph unicode="u" d="M18 262l76 537h107l108 -125l-59 -412l-131 -117zM100 840l95 678l133 116l98 -116l-76 -553l-143 -125h-107zM143 117l133 114h441l98 -114l-131 -117h-440zM752 262l57 412l141 125h107l-74 -537l-133 -117zM850 965l78 553l131 116l100 -116l-96 -678h-107z" />
<glyph unicode="v" d="M49 711l12 88h232l164 -475l-45 -324h-82zM70 840l96 678l131 116l100 -116l-88 -617l-41 -61h-198zM453 0l47 324l297 475h231l-12 -88l-481 -711h-82zM811 901l86 617l131 116l100 -116l-94 -678h-198z" />
<glyph unicode="w" d="M6 117l96 680h109l106 -125l-77 -555l-134 -117zM109 838l96 680l131 116l100 -116l-78 -555l-143 -125h-106zM297 240l57 415l127 142h82l-33 -234l-229 -323h-4zM573 563l33 234h82l86 -142l-57 -415h-4zM741 117l78 555l144 125h106l-96 -680l-131 -117zM860 963 l78 555l133 116l100 -116l-96 -680h-108z" />
<glyph unicode="x" d="M23 0l32 242l367 557h143l-33 -234l-372 -565h-137zM217 1397l35 241h139l213 -567l-33 -231h-143zM573 565l33 234h144l211 -557l-35 -242h-140zM612 840l33 231l373 567h137l-33 -241l-366 -557h-144z" />
<glyph unicode="y" d="M94 1489l21 149h200l179 -598l-29 -202h-174zM268 117l78 555l133 114l101 -114l-78 -555l-133 -117zM508 838l29 202l346 598h200l-20 -149l-381 -651h-174z" />
<glyph unicode="z" d="M90 117l133 114h504l100 -114l-133 -117h-504zM211 274l45 324l195 201h114l-33 -232l-256 -293h-65zM352 1522l133 116h502l100 -116l-133 -115h-501zM612 840l33 231l256 293h66l-45 -324l-195 -200h-115z" />
<glyph unicode="|" d="M358 0l95 674l131 114l100 -114l-94 -674l-133 -117zM494 965l94 673l133 117l98 -117l-94 -673l-131 -115z" />
<glyph unicode="&#xa0;" />
<glyph unicode="&#xaa;" d="M14 121l97 678h106l107 -125l-78 -553l-131 -117zM117 840l73 534l136 119l100 -117l-57 -411l-144 -125h-108zM262 819l131 117h443l100 -117l-131 -117h-445zM362 1522l134 116h440l98 -116l-131 -115h-440zM754 121l77 553l144 125h106l-96 -678l-131 -117zM870 965 l58 411l135 119l100 -119l-76 -536h-110z" />
<glyph unicode="&#xb2;" d="M12 31l90 647l134 117l100 -117l-60 -416zM39 0l264 231h442l199 -231h-905zM199 1358l2 18l133 117l100 -117l-4 -18l-131 -117zM268 819l133 117h443l100 -117l-133 -117h-442zM369 1522l131 116h440l100 -116l-133 -115h-440zM877 965l57 411l131 117l100 -117 l-57 -411l-133 -115z" />
<glyph unicode="&#xb3;" d="M61 117l132 114h501l99 -114l-131 -117h-500zM258 1522l133 116h500l100 -116l-133 -115h-500zM279 819l131 117h383l100 -117l-133 -117h-383zM727 262l59 412l132 114l100 -114l-57 -412l-134 -117zM827 965l58 411l131 117l100 -117l-57 -411l-133 -115z" />
<glyph unicode="&#xb9;" d="M324 1155l16 119l221 192l-43 -301l-117 -100zM420 100l80 572l135 116l100 -116l-78 -551l-135 -117zM543 967l75 551l136 116l100 -116l-78 -551l-133 -117z" />
<glyph unicode="&#xba;" d="M29 262l75 537h107l106 -125l-57 -412l-131 -117zM111 840l73 536l133 117l101 -117l-60 -411l-141 -125h-106zM154 117l133 114h440l98 -114l-131 -117h-440zM352 1522l131 116h441l100 -116l-133 -115h-440zM760 262l59 412l142 125h106l-74 -537l-133 -117zM860 965 l58 411l131 117l100 -117l-76 -536h-106z" />
<glyph unicode="&#x152;" horiz-adv-x="2355" d="M1270 262l74 537h108l107 -125l-57 -412l-134 -117zM1350 840l76 536l133 117l98 -117l-57 -411l-141 -125h-109zM1395 117l131 114h440l101 -114l-133 -117h-441zM1491 819l131 117h324l100 -117l-133 -117h-323zM1592 1522l133 116h440l98 -116l-131 -115h-440zM29 262 l75 537h107l106 -125l-57 -412l-131 -117zM111 840l73 536l133 117l101 -117l-60 -411l-141 -125h-106zM154 117l133 114h440l98 -114l-131 -117h-440zM352 1522l131 116h441l100 -116l-133 -115h-440zM760 262l59 412l142 125h106l-74 -537l-133 -117zM860 965l58 411 l131 117l100 -117l-76 -536h-106z" />
<glyph unicode="&#x153;" horiz-adv-x="2355" d="M1270 262l74 537h108l107 -125l-57 -412l-134 -117zM1350 840l76 536l133 117l98 -117l-57 -411l-141 -125h-109zM1395 117l131 114h440l101 -114l-133 -117h-441zM1491 819l131 117h324l100 -117l-133 -117h-323zM1592 1522l133 116h440l98 -116l-131 -115h-440zM29 262 l75 537h107l106 -125l-57 -412l-131 -117zM111 840l73 536l133 117l101 -117l-60 -411l-141 -125h-106zM154 117l133 114h440l98 -114l-131 -117h-440zM352 1522l131 116h441l100 -116l-133 -115h-440zM760 262l59 412l142 125h106l-74 -537l-133 -117zM860 965l58 411 l131 117l100 -117l-76 -536h-106z" />
<glyph unicode="&#x2013;" horiz-adv-x="1024" d="M205 512v205h614v-205h-614z" />
<glyph unicode="&#x2014;" horiz-adv-x="2048" d="M205 512v205h1638v-205h-1638z" />
<glyph unicode="&#x2019;" d="M459 1229l26 196l133 117l101 -117l-27 -196l-133 -117z" />
<glyph unicode="&#x201c;" d="M279 1229l28 196l133 117l101 -117l-27 -196l-135 -117zM637 1229l27 196l135 117l100 -117l-29 -196l-133 -117z" />
<glyph unicode="&#x201d;" d="M279 1229l28 196l133 117l101 -117l-27 -196l-135 -117zM637 1229l27 196l135 117l100 -117l-29 -196l-133 -117z" />
<glyph unicode="&#x2026;" horiz-adv-x="3532" d="M2820 125l16 117l131 116l101 -116l-17 -117l-131 -117zM1643 125l16 117l131 116l101 -116l-17 -117l-131 -117zM465 125l16 117l131 116l101 -116l-17 -117l-131 -117z" />
<glyph unicode="&#x2039;" d="M403 598l29 201h141l76 -234l-55 -383h-4zM438 840l29 200l303 416h4l-55 -383l-139 -233h-142z" />
<glyph unicode="&#x203a;" d="M403 182l56 383l139 234h141l-28 -201l-303 -416h-5zM528 1073l56 383h4l186 -416l-29 -200h-141z" />
<glyph unicode="&#x2122;" horiz-adv-x="2355" d="M1184 117l96 682h107l108 -127l-77 -555l-134 -117zM1284 840l97 682l133 116l100 -116l-78 -555l-143 -127h-109zM1579 983l58 416h4l139 -326l-33 -233h-82zM1790 840l33 233l229 326h5l-58 -416l-127 -143h-82zM1919 117l78 555l144 127h108l-96 -682l-133 -117z M2038 967l78 555l133 116l100 -116l-96 -682h-106zM133 1522l131 116h682l98 -116l-131 -115h-196l-125 143l-164 -143h-197zM274 121l78 553l133 114l99 -114l-78 -553l-131 -117zM393 965l58 411l133 117l98 -117l-57 -411l-131 -115z" />
<glyph unicode="&#xe000;" horiz-adv-x="1640" d="M0 1640h1640v-1640h-1640v1640z" />
<glyph unicode="&#xfb01;" horiz-adv-x="2355" d="M1553 121l78 553l131 114l100 -114l-78 -553l-131 -117zM1672 965l77 553l131 116l101 -116l-78 -553l-131 -115zM82 121l94 678h109l106 -125l-78 -553l-133 -117zM182 840l76 536l131 117l100 -117l-57 -411l-143 -125h-107zM324 819l131 117h323l99 -117l-132 -117 h-323zM424 1522l133 116h440l99 -116l-131 -115h-441z" />
<glyph unicode="&#xfb02;" horiz-adv-x="2355" d="M1368 262l76 537h107l106 -125l-57 -412l-133 -117zM1450 840l95 678l133 116l98 -116l-78 -553l-141 -125h-107zM1493 117l134 114h440l98 -114l-131 -117h-440zM82 121l94 678h109l106 -125l-78 -553l-133 -117zM182 840l76 536l131 117l100 -117l-57 -411l-143 -125 h-107zM324 819l131 117h323l99 -117l-132 -117h-323zM424 1522l133 116h440l99 -116l-131 -115h-441z" />
<glyph unicode="&#xfb03;" horiz-adv-x="3532" d="M2730 121l78 553l131 114l100 -114l-78 -553l-131 -117zM2849 965l77 553l131 116l101 -116l-78 -553l-131 -115zM1260 121l94 678h109l106 -125l-78 -553l-133 -117zM1360 840l76 536l131 117l100 -117l-57 -411l-143 -125h-107zM1502 819l131 117h323l99 -117 l-132 -117h-323zM1602 1522l133 116h440l99 -116l-131 -115h-441zM82 121l94 678h109l106 -125l-78 -553l-133 -117zM182 840l76 536l131 117l100 -117l-57 -411l-143 -125h-107zM324 819l131 117h323l99 -117l-132 -117h-323zM424 1522l133 116h440l99 -116l-131 -115h-441 z" />
<glyph unicode="&#xfb04;" horiz-adv-x="3532" d="M2545 262l76 537h107l106 -125l-57 -412l-133 -117zM2627 840l95 678l133 116l98 -116l-78 -553l-141 -125h-107zM2670 117l134 114h440l98 -114l-131 -117h-440zM1260 121l94 678h109l106 -125l-78 -553l-133 -117zM1360 840l76 536l131 117l100 -117l-57 -411 l-143 -125h-107zM1502 819l131 117h323l99 -117l-132 -117h-323zM1602 1522l133 116h440l99 -116l-131 -115h-441zM82 121l94 678h109l106 -125l-78 -553l-133 -117zM182 840l76 536l131 117l100 -117l-57 -411l-143 -125h-107zM324 819l131 117h323l99 -117l-132 -117h-323 zM424 1522l133 116h440l99 -116l-131 -115h-441z" />
</font>
</defs>
</svg>
